<?xml version="1.0" standalone="no"?>
<!DOCTYPE svg PUBLIC "-//W3C//DTD SVG 1.1//EN" "http://www.w3.org/Graphics/SVG/1.1/DTD/svg11.dtd" >
<svg xmlns="http://www.w3.org/2000/svg" xmlns:xlink="http://www.w3.org/1999/xlink" version="1.1">
<metadata></metadata>
<defs>
<font id="open_sansregular" horiz-adv-x="1135" >
<font-face units-per-em="2048" ascent="1638" descent="-410" />
<missing-glyph horiz-adv-x="516" />
<glyph unicode="&#xfb01;" horiz-adv-x="1175" d="M28 938v73l190 58v59q0 392 343 392q84 0 198 -34l-42 -129q-93 30 -159 30q-91 0 -135 -60.5t-44 -194.5v-69h271v-125h-271v-938h-161v938h-190zM830 1351q0 55 27 81t68 26q39 0 67 -26t28 -81q0 -54 -28 -80.5t-67 -26.5q-41 0 -68 26.5t-27 80.5zM844 0v1063h161 v-1063h-161z" />
<glyph unicode="&#xfb02;" horiz-adv-x="1175" d="M28 938v73l190 58v59q0 392 343 392q84 0 198 -34l-42 -129q-93 30 -159 30q-91 0 -135 -60.5t-44 -194.5v-69h271v-125h-271v-938h-161v938h-190zM844 0v1509h161v-1509h-161z" />
<glyph unicode="&#xfb03;" horiz-adv-x="1851" d="M28 938v73l190 58v59q0 392 343 392q84 0 198 -34l-42 -129q-93 30 -159 30q-91 0 -135 -60.5t-44 -194.5v-69h271v-125h-271v-938h-161v938h-190zM695 938v73l190 58v59q0 392 343 392q84 0 198 -34l-42 -129q-93 30 -159 30q-91 0 -135 -60.5t-44 -194.5v-69h271v-125 h-271v-938h-161v938h-190zM1504 1351q0 55 27 81t68 26q39 0 67 -26t28 -81q0 -54 -28 -80.5t-67 -26.5q-41 0 -68 26.5t-27 80.5zM1518 0v1063h161v-1063h-161z" />
<glyph unicode="&#xfb04;" horiz-adv-x="1851" d="M28 938v73l190 58v59q0 392 343 392q84 0 198 -34l-42 -129q-93 30 -159 30q-91 0 -135 -60.5t-44 -194.5v-69h271v-125h-271v-938h-161v938h-190zM695 938v73l190 58v59q0 392 343 392q84 0 198 -34l-42 -129q-93 30 -159 30q-91 0 -135 -60.5t-44 -194.5v-69h271v-125 h-271v-938h-161v938h-190zM1518 0v1509h161v-1509h-161z" />
<glyph horiz-adv-x="0" />
<glyph unicode="&#xd;" horiz-adv-x="1012" />
<glyph unicode=" "  horiz-adv-x="516" />
<glyph unicode="&#x09;" horiz-adv-x="516" />
<glyph unicode="&#xa0;" horiz-adv-x="516" />
<glyph unicode="!" horiz-adv-x="530" d="M147 103q0 132 117 132q56 0 86.5 -34t30.5 -98q0 -62 -31 -96.5t-86 -34.5q-51 0 -84 30.5t-33 100.5zM165 1418h201l-50 -1027h-102z" />
<glyph unicode="&#x22;" horiz-adv-x="796" d="M129 1418h180l-38 -512h-102zM487 1418h180l-39 -512h-101z" />
<glyph unicode="#" horiz-adv-x="1283" d="M49 417v125h279l66 330h-269v123h290l80 423h135l-80 -423h296l81 423h130l-81 -423h256v-123h-280l-64 -330h274v-125h-298l-81 -417h-133l81 417h-294l-79 -417h-132l78 417h-255zM461 542h294l64 330h-294z" />
<glyph unicode="$" d="M127 165v151q81 -36 186 -58.5t191 -22.5v427q-198 63 -278 146t-80 215q0 127 98 208.5t260 99.5v176h126v-174q178 -5 344 -72l-51 -127q-144 57 -293 68v-421q152 -49 227.5 -95t111.5 -105.5t36 -144.5q0 -132 -99 -218t-276 -108v-225h-126v216q-108 0 -210 17 t-167 47zM309 1025q0 -73 44 -118t151 -84v375q-96 -16 -145.5 -61t-49.5 -112zM630 244q210 30 210 179q0 70 -43 113t-167 86v-378z" />
<glyph unicode="%" horiz-adv-x="1635" d="M101 995q0 220 72 332t214 112q141 0 216.5 -115.5t75.5 -328.5q0 -221 -74 -334t-218 -113q-136 0 -211 115.5t-75 331.5zM235 995q0 -165 36 -247.5t116 -82.5q159 0 159 330q0 328 -159 328q-80 0 -116 -81.5t-36 -246.5zM354 0l787 1418h142l-786 -1418h-143z M955 427q0 220 72.5 331.5t214.5 111.5q137 0 214.5 -114t77.5 -329q0 -220 -74.5 -333t-217.5 -113q-138 0 -212.5 115t-74.5 331zM1088 427q0 -166 36 -248t118 -82q81 0 120 81t39 249q0 166 -39 246t-120 80q-82 0 -118 -80t-36 -246z" />
<glyph unicode="&#x26;" horiz-adv-x="1450" d="M110 368q0 126 67 223t242 196q-82 92 -112 139.5t-47.5 99t-17.5 106.5q0 145 95.5 226.5t264.5 81.5q158 0 248 -81t90 -225q0 -104 -66 -191.5t-218 -178.5l395 -379q54 60 86.5 141t54.5 177h163q-66 -277 -199 -421l290 -282h-222l-179 173q-115 -103 -233 -147.5 t-264 -44.5q-208 0 -323 102.5t-115 284.5zM276 372q0 -114 75.5 -180.5t200.5 -66.5q234 0 388 150l-424 411q-108 -66 -152.5 -109t-66 -92.5t-21.5 -112.5zM402 1136q0 -67 34.5 -127.5t119.5 -146.5q125 73 174 134.5t49 142.5q0 74 -50 121.5t-133 47.5 q-87 0 -140.5 -47t-53.5 -125z" />
<glyph unicode="'" horiz-adv-x="439" d="M129 1418h180l-38 -512h-102z" />
<glyph unicode="(" horiz-adv-x="587" d="M80 544q0 257 75 481t217 393h157q-140 -187 -210.5 -411t-70.5 -461q0 -233 72 -455t207 -405h-155q-143 165 -217.5 385t-74.5 473z" />
<glyph unicode=")" horiz-adv-x="587" d="M59 1418h157q143 -170 217.5 -394.5t74.5 -479.5t-75 -475t-217 -383h-155q135 182 207 404.5t72 455.5q0 237 -70.5 461t-210.5 411z" />
<glyph unicode="*" horiz-adv-x="1096" d="M83 1057l29 177l379 -108l-42 383h188l-41 -383l386 108l25 -177l-370 -30l241 -316l-167 -91l-171 351l-155 -351l-171 91l235 316z" />
<glyph unicode="+" d="M101 633v134h398v415h134v-415h400v-134h-400v-413h-134v413h-398z" />
<glyph unicode="," horiz-adv-x="486" d="M61 -256q26 101 57.5 249.5t44.5 237.5h177l14 -22q-25 -97 -72.5 -226t-99.5 -239h-121z" />
<glyph unicode="-" horiz-adv-x="639" d="M81 459v147h477v-147h-477z" />
<glyph unicode="." horiz-adv-x="528" d="M147 103q0 65 30 98.5t85 33.5q56 0 87.5 -33.5t31.5 -98.5q0 -63 -32 -97t-87 -34q-50 0 -82.5 30.5t-32.5 100.5z" />
<glyph unicode="/" horiz-adv-x="729" d="M19 0l529 1418h161l-529 -1418h-161z" />
<glyph unicode="0" d="M99 711q0 371 115.5 550t351.5 179q231 0 351 -187t120 -542q0 -368 -116 -549t-355 -181q-228 0 -347.5 185.5t-119.5 544.5zM262 711q0 -309 72.5 -450.5t231.5 -141.5q162 0 234 143t72 449t-72 448t-234 142q-159 0 -231.5 -140.5t-72.5 -449.5z" />
<glyph unicode="1" d="M182 1128l376 290h136v-1418h-158v1011q0 126 8 238q-20 -20 -45.5 -42.5t-230.5 -188.5z" />
<glyph unicode="2" d="M97 0v139l373 375q171 173 225.5 246.5t81.5 143.5t27 150q0 114 -69 180.5t-191 66.5q-88 0 -167 -29t-176 -106l-86 110q196 163 427 163q200 0 313.5 -102.5t113.5 -275.5q0 -135 -75.5 -266.5t-283.5 -333.5l-310 -304v-8h729v-149h-932z" />
<glyph unicode="3" d="M91 57v153q92 -45 196.5 -69t197.5 -24q368 0 368 288q0 258 -406 258h-140v139h142q166 0 263 73.5t97 203.5q0 103 -71.5 162.5t-193.5 59.5q-93 0 -175.5 -25.5t-188.5 -93.5l-81 109q87 69 201 108.5t240 39.5q207 0 321.5 -95t114.5 -260q0 -135 -76 -221.5 t-216 -115.5v-8q171 -21 253 -108.5t82 -228.5q0 -203 -140.5 -312t-399.5 -109q-112 0 -206 17t-182 59z" />
<glyph unicode="4" d="M42 326v141l673 959h171v-954h210v-146h-210v-326h-155v326h-689zM203 472h528v472q0 139 10 313h-8q-46 -93 -87 -154z" />
<glyph unicode="5" d="M129 57v155q68 -43 169 -68t199 -25q170 0 265 80.5t95 233.5q0 296 -364 296q-92 0 -247 -28l-83 54l53 663h706v-148h-568l-36 -426q112 22 222 22q224 0 352.5 -111t128.5 -304q0 -220 -140 -345t-386 -125q-240 0 -366 76z" />
<glyph unicode="6" d="M113 606q0 418 162.5 625.5t481.5 207.5q109 0 172 -19v-139q-74 25 -170 25q-228 0 -348.5 -142.5t-132.5 -446.5h12q107 167 338 167q191 0 301 -115.5t110 -313.5q0 -221 -121 -347.5t-326 -126.5q-220 0 -349.5 165t-129.5 460zM278 491q0 -100 39 -186.5t110.5 -137 t162.5 -50.5q138 0 214 87t76 251q0 141 -71 221.5t-211 80.5q-88 0 -160.5 -36t-116 -99t-43.5 -131z" />
<glyph unicode="7" d="M91 1270v148h944v-129l-580 -1289h-179l588 1270h-773z" />
<glyph unicode="8" d="M101 362q0 243 297 379q-134 76 -192.5 163.5t-58.5 196.5q0 154 114 246t305 92q194 0 307.5 -90.5t113.5 -249.5q0 -105 -65 -191t-207 -157q173 -83 245.5 -173.5t72.5 -209.5q0 -177 -123 -282t-338 -105q-227 0 -349 99t-122 282zM260 358q0 -116 81 -181t227 -65 q145 0 225.5 67.5t80.5 186.5q0 94 -75.5 167t-264.5 142q-144 -62 -209 -137t-65 -180zM306 1094q0 -89 57 -153t211 -128q139 58 196.5 125t57.5 156q0 98 -70 156t-193 58q-122 0 -190.5 -58.5t-68.5 -155.5z" />
<glyph unicode="9" d="M103 961q0 221 123.5 349.5t325.5 128.5q144 0 252.5 -74.5t166.5 -216.5t58 -335q0 -832 -644 -832q-112 0 -178 19v139q77 -26 176 -26q233 0 352 144.5t129 441.5h-11q-54 -80 -142 -122.5t-199 -42.5q-188 0 -298.5 113t-110.5 314zM262 963q0 -139 70 -219.5 t212 -80.5q88 0 162.5 36t117 98t42.5 130q0 102 -39.5 188.5t-111 136t-163.5 49.5q-139 0 -214.5 -89.5t-75.5 -248.5z" />
<glyph unicode=":" horiz-adv-x="528" d="M147 103q0 65 30 98.5t85 33.5q56 0 87.5 -33.5t31.5 -98.5q0 -63 -32 -97t-87 -34q-50 0 -82.5 30.5t-32.5 100.5zM147 959q0 131 115 131q119 0 119 -131q0 -63 -32 -97t-87 -34q-50 0 -82.5 30.5t-32.5 100.5z" />
<glyph unicode=";" horiz-adv-x="528" d="M61 -256q26 101 57.5 249.5t44.5 237.5h177l14 -22q-25 -97 -72.5 -226t-99.5 -239h-121zM143 959q0 131 115 131q119 0 119 -131q0 -63 -32 -97t-87 -34q-56 0 -85.5 34t-29.5 97z" />
<glyph unicode="&#x3c;" d="M101 644v95l932 465v-145l-758 -360l758 -318v-146z" />
<glyph unicode="=" d="M115 436v132h903v-132h-903zM115 832v133h903v-133h-903z" />
<glyph unicode="&#x3e;" d="M101 235v146l759 316l-759 362v145l932 -465v-95z" />
<glyph unicode="?" horiz-adv-x="852" d="M26 1342q184 97 383 97q186 0 288.5 -91.5t102.5 -257.5q0 -71 -19 -124.5t-55.5 -101.5t-159.5 -155q-97 -83 -129 -138.5t-32 -147.5v-32h-125v52q0 114 35 187t130 155q132 111 166.5 167.5t34.5 135.5q0 99 -63.5 153t-182.5 54q-77 0 -149.5 -18t-167.5 -65z M233 103q0 132 116 132q56 0 87 -34t31 -98q0 -62 -31.5 -96.5t-86.5 -34.5q-50 0 -83 30.5t-33 100.5z" />
<glyph unicode="@" horiz-adv-x="1785" d="M117 554q0 252 104 449t296 305t440 108q209 0 371.5 -87.5t251 -249t88.5 -372.5q0 -138 -42.5 -252.5t-120 -177.5t-178.5 -63q-83 0 -140.5 50.5t-68.5 129.5h-7q-39 -85 -111.5 -132.5t-171.5 -47.5q-145 0 -227 99.5t-82 270.5q0 198 114.5 321.5t300.5 123.5 q66 0 149.5 -12t150.5 -33l-24 -456v-22q0 -172 129 -172q88 0 143 104t55 271q0 176 -71.5 307.5t-204 203t-304.5 71.5q-216 0 -376 -89.5t-244.5 -256t-84.5 -384.5q0 -296 156.5 -455t449.5 -159q204 0 423 83v-129q-186 -81 -423 -81q-352 0 -546.5 193.5t-194.5 540.5 zM665 580q0 -246 190 -246q200 0 218 303l13 253q-69 20 -152 20q-126 0 -197.5 -87.5t-71.5 -242.5z" />
<glyph unicode="A" horiz-adv-x="1257" d="M0 0l561 1424h138l558 -1424h-171l-176 451h-569l-174 -451h-167zM400 599h458l-164 440q-32 83 -66 205q-22 -94 -62 -205z" />
<glyph unicode="B" horiz-adv-x="1287" d="M195 0v1418h401q282 0 408 -84.5t126 -266.5q0 -126 -70.5 -208t-204.5 -106v-10q323 -55 323 -339q0 -191 -128.5 -297.5t-359.5 -106.5h-495zM360 141h296q171 0 258 66.5t87 207.5q0 132 -88.5 194t-270.5 62h-282v-530zM360 811h271q175 0 251.5 55t76.5 185 q0 119 -85 172t-272 53h-242v-465z" />
<glyph unicode="C" horiz-adv-x="1253" d="M121 711q0 219 82 384t237 254.5t364 89.5q223 0 390 -82l-70 -142q-161 76 -322 76q-234 0 -369 -155.5t-135 -426.5q0 -278 130.5 -430t371.5 -152q149 0 339 53v-144q-148 -55 -364 -55q-313 0 -483.5 190t-170.5 540z" />
<glyph unicode="D" horiz-adv-x="1448" d="M195 0v1418h435q330 0 513.5 -183.5t183.5 -511.5q0 -351 -190.5 -537t-548.5 -186h-393zM360 143h201q295 0 443 145t148 429q0 277 -139 418t-414 141h-239v-1133z" />
<glyph unicode="E" horiz-adv-x="1104" d="M195 0v1418h791v-146h-626v-457h588v-146h-588v-522h626v-147h-791z" />
<glyph unicode="F" horiz-adv-x="1025" d="M195 0v1418h791v-146h-626v-519h588v-147h-588v-606h-165z" />
<glyph unicode="G" horiz-adv-x="1446" d="M121 709q0 221 89 387.5t255.5 254.5t391.5 88q226 0 422 -84l-64 -145q-192 81 -369 81q-259 0 -404.5 -154t-145.5 -428q0 -287 140 -435.5t412 -148.5q147 0 288 34v437h-317v147h482v-690q-113 -36 -229.5 -54t-269.5 -18q-322 0 -501.5 191.5t-179.5 536.5z" />
<glyph unicode="H" horiz-adv-x="1465" d="M195 0v1418h165v-603h747v603h165v-1418h-165v667h-747v-667h-165z" />
<glyph unicode="I" horiz-adv-x="553" d="M195 0v1418h165v-1418h-165z" />
<glyph unicode="J" horiz-adv-x="530" d="M-155 -207q69 -19 143 -19q96 0 146 58t50 168v1418h165v-1404q0 -185 -93 -286t-268 -101q-91 0 -143 26v140z" />
<glyph unicode="K" horiz-adv-x="1219" d="M195 0v1418h165v-703l643 703h195l-570 -616l591 -802h-194l-517 688l-148 -132v-556h-165z" />
<glyph unicode="L" horiz-adv-x="1031" d="M195 0v1418h165v-1269h626v-149h-791z" />
<glyph unicode="M" horiz-adv-x="1793" d="M195 0v1418h248l449 -1170h8l453 1170h247v-1418h-165v914q0 157 13 341h-8l-485 -1255h-132l-482 1257h-7q13 -149 13 -355v-902h-152z" />
<glyph unicode="N" horiz-adv-x="1497" d="M195 0v1418h186l773 -1185h8q-2 26 -8 168q-6 123 -6 185v18v814h155v-1418h-188l-775 1190h-8q15 -209 15 -384v-806h-152z" />
<glyph unicode="O" horiz-adv-x="1547" d="M121 713q0 346 171 536.5t485 190.5q306 0 477.5 -194t171.5 -535q0 -340 -172 -535t-479 -195q-313 0 -483.5 191.5t-170.5 540.5zM296 711q0 -288 122.5 -437t356.5 -149q236 0 356 148.5t120 437.5q0 286 -119.5 434t-354.5 148q-236 0 -358.5 -149t-122.5 -433z" />
<glyph unicode="P" horiz-adv-x="1196" d="M195 0v1418h368q531 0 531 -413q0 -215 -147 -331t-420 -116h-167v-558h-165zM360 699h148q220 0 317.5 71t97.5 227q0 141 -92 210t-287 69h-184v-577z" />
<glyph unicode="Q" horiz-adv-x="1547" d="M121 713q0 346 171 536.5t485 190.5q306 0 477.5 -194t171.5 -535q0 -273 -109.5 -453t-309.5 -244l337 -352h-239l-277 321l-53 -2q-313 0 -483.5 191.5t-170.5 540.5zM296 711q0 -288 122.5 -437t356.5 -149q236 0 356 148.5t120 437.5q0 286 -119.5 434t-354.5 148 q-236 0 -358.5 -149t-122.5 -433z" />
<glyph unicode="R" horiz-adv-x="1228" d="M195 0v1418h389q261 0 385.5 -100t124.5 -300q0 -282 -285 -381l385 -637h-195l-343 590h-296v-590h-165zM360 731h226q174 0 255.5 69.5t81.5 208.5q0 140 -82.5 202.5t-266.5 62.5h-214v-543z" />
<glyph unicode="S" horiz-adv-x="1090" d="M103 46v159q87 -37 190 -58.5t204 -21.5q165 0 248 62.5t83 174.5q0 74 -29.5 121t-99 86.5t-210.5 90.5q-198 70 -283 167t-85 254q0 164 123.5 261t325.5 97q212 0 389 -78l-51 -144q-176 74 -342 74q-130 0 -204 -56t-74 -156q0 -74 27 -121t91.5 -86.5t197.5 -86.5 q223 -80 307 -171t84 -237q0 -187 -135.5 -291.5t-368.5 -104.5q-252 0 -388 65z" />
<glyph unicode="T" horiz-adv-x="1099" d="M17 1272v146h1064v-146h-450v-1272h-164v1272h-450z" />
<glyph unicode="U" horiz-adv-x="1446" d="M180 504v914h165v-925q0 -178 97 -273t286 -95q179 0 276 95.5t97 274.5v923h165v-917q0 -243 -146.5 -381.5t-402.5 -138.5t-396.5 139.5t-140.5 383.5z" />
<glyph unicode="V" horiz-adv-x="1182" d="M0 1418h175l326 -917q56 -159 89 -308q35 157 91 313l324 912h177l-511 -1418h-163z" />
<glyph unicode="W" horiz-adv-x="1839" d="M26 1418h175l224 -876q46 -184 68 -333q26 177 77 347l254 862h175l267 -870q46 -150 78 -339q19 137 70 335l223 874h175l-379 -1418h-163l-286 950q-21 63 -46 159t-26 115q-22 -128 -68 -280l-278 -944h-162z" />
<glyph unicode="X" horiz-adv-x="1146" d="M8 0l471 741l-439 677h182l352 -561l355 561h176l-440 -671l474 -747h-187l-382 624l-388 -624h-174z" />
<glyph unicode="Y" horiz-adv-x="1112" d="M0 1418h180l376 -709l378 709h179l-474 -868v-550h-167v542z" />
<glyph unicode="Z" horiz-adv-x="1133" d="M80 0v129l752 1141h-729v148h930v-129l-753 -1140h774v-149h-974z" />
<glyph unicode="[" horiz-adv-x="653" d="M161 -314v1732h443v-137h-280v-1458h280v-137h-443z" />
<glyph unicode="\" horiz-adv-x="729" d="M22 1418h158l531 -1418h-161z" />
<glyph unicode="]" horiz-adv-x="653" d="M49 -177h281v1458h-281v137h444v-1732h-444v137z" />
<glyph unicode="^" horiz-adv-x="1076" d="M48 534l421 895h96l462 -895h-147l-361 723l-324 -723h-147z" />
<glyph unicode="_" horiz-adv-x="890" d="M-4 -178h898v-128h-898v128z" />
<glyph unicode="`" horiz-adv-x="1146" d="M381 1502v20h197q31 -67 86.5 -155t97.5 -139v-24h-106q-63 50 -149.5 143t-125.5 155z" />
<glyph unicode="a" horiz-adv-x="1104" d="M91 294q0 322 515 337l181 6v66q0 125 -54 185t-172 60q-133 0 -301 -82l-50 123q79 43 172.5 67.5t187.5 24.5q190 0 282 -84.5t92 -270.5v-726h-120l-32 151h-7q-80 -100 -159 -135t-197 -35q-158 0 -248 81.5t-90 231.5zM260 292q0 -87 53 -133t148 -46 q150 0 236 82.5t86 231.5v96l-161 -7q-192 -7 -277 -59.5t-85 -164.5z" />
<glyph unicode="b" horiz-adv-x="1217" d="M171 0v1509h161v-366q0 -124 -8 -221h8q112 159 333 159q210 0 326 -143.5t116 -404.5q0 -262 -117 -407t-325 -145q-103 0 -189 38t-144 118h-12l-34 -137h-115zM332 533q0 -225 74.5 -321.5t239.5 -96.5q148 0 221 108.5t73 310.5q0 208 -73 310t-225 102 q-165 0 -237.5 -94.5t-72.5 -318.5z" />
<glyph unicode="c" horiz-adv-x="945" d="M112 525q0 267 128.5 412.5t365.5 145.5q77 0 153.5 -16.5t120.5 -39.5l-50 -137q-53 22 -116 36t-112 14q-324 0 -324 -413q0 -196 79 -301t235 -105q133 0 272 57v-142q-106 -55 -268 -55q-231 0 -357.5 142t-126.5 402z" />
<glyph unicode="d" horiz-adv-x="1217" d="M112 529q0 263 116 408.5t324 145.5q216 0 332 -158h12l-7 77l-3 75v432h161v-1509h-131l-22 143h-8q-112 -162 -334 -162q-209 0 -324.5 142.5t-115.5 405.5zM278 527q0 -204 75 -308t219 -104q165 0 239.5 90t74.5 290v34q0 226 -75.5 322.5t-240.5 96.5 q-141 0 -216.5 -110t-75.5 -311z" />
<glyph unicode="e" horiz-adv-x="1114" d="M112 523q0 257 126.5 408.5t339.5 151.5q200 0 316.5 -131.5t116.5 -347.5v-102h-733q5 -187 95 -284t253 -97q171 0 339 72v-144q-85 -36 -161 -52t-184 -16q-236 0 -372 143.5t-136 398.5zM282 633h556q0 153 -68 234t-194 81q-128 0 -204 -83.5t-90 -231.5z" />
<glyph unicode="f" horiz-adv-x="673" d="M28 938v73l190 58v59q0 392 343 392q84 0 198 -34l-42 -129q-93 30 -159 30q-91 0 -135 -60.5t-44 -194.5v-69h271v-125h-271v-938h-161v938h-190z" />
<glyph unicode="g" horiz-adv-x="1088" d="M38 -180q0 97 62 167.5t175 95.5q-41 19 -69 57.5t-28 90.5q0 58 31.5 101.5t97.5 84.5q-82 34 -134 115.5t-52 186.5q0 174 105 269t297 95q83 0 150 -20h368v-102l-197 -23q27 -34 48.5 -89t21.5 -123q0 -157 -107 -250t-293 -93q-47 0 -89 8q-103 -54 -103 -137 q0 -44 36 -64.5t123 -20.5h188q173 0 265.5 -73t92.5 -211q0 -177 -141.5 -269.5t-413.5 -92.5q-208 0 -321 77.5t-113 219.5zM193 -178q0 -87 73 -131.5t208 -44.5q203 0 300.5 60.5t97.5 164.5q0 86 -53.5 119.5t-200.5 33.5h-193q-110 0 -171 -52.5t-61 -149.5zM280 723 q0 -112 63 -169t176 -57q236 0 236 229q0 239 -239 239q-113 0 -174.5 -61t-61.5 -181z" />
<glyph unicode="h" horiz-adv-x="1219" d="M171 0v1509h161v-457q0 -82 -8 -136h10q47 76 135 120.5t200 44.5q195 0 292.5 -93t97.5 -294v-694h-161v688q0 130 -59 194t-185 64q-168 0 -245 -91.5t-77 -298.5v-556h-161z" />
<glyph unicode="i" horiz-adv-x="502" d="M157 1351q0 55 27 81t68 26q39 0 67 -26t28 -81q0 -54 -28 -80.5t-67 -26.5q-41 0 -68 26.5t-27 80.5zM171 0v1063h161v-1063h-161z" />
<glyph unicode="j" horiz-adv-x="502" d="M-108 -322q67 -19 132 -19q76 0 111.5 41t35.5 125v1238h161v-1226q0 -314 -290 -314q-92 0 -150 24v131zM157 1351q0 55 27 81t68 26q39 0 67 -26t28 -81q0 -54 -28 -80.5t-67 -26.5q-41 0 -68 26.5t-27 80.5z" />
<glyph unicode="k" horiz-adv-x="1042" d="M171 0v1509h159v-800q0 -53 -8 -165h8q42 59 127 155l343 364h191l-430 -453l460 -610h-195l-375 502l-121 -104v-398h-159z" />
<glyph unicode="l" horiz-adv-x="502" d="M171 0v1509h161v-1509h-161z" />
<glyph unicode="m" horiz-adv-x="1847" d="M171 0v1063h131l26 -145h8q45 77 128 121t186 44q249 0 326 -181h8q47 84 137.5 132.5t205.5 48.5q180 0 270 -93t90 -296v-694h-161v692q0 127 -54.5 190.5t-168.5 63.5q-151 0 -222.5 -86.5t-71.5 -265.5v-594h-161v692q0 127 -54.5 190.5t-169.5 63.5q-152 0 -222 -91 t-70 -297v-558h-161z" />
<glyph unicode="n" horiz-adv-x="1219" d="M171 0v1063h131l26 -145h8q49 78 138.5 121.5t198.5 43.5q192 0 289 -93t97 -296v-694h-161v688q0 130 -59 194t-185 64q-167 0 -244.5 -90.5t-77.5 -297.5v-558h-161z" />
<glyph unicode="o" horiz-adv-x="1199" d="M112 533q0 259 130 404.5t360 145.5q223 0 354.5 -148.5t131.5 -401.5q0 -260 -131 -406t-361 -146q-143 0 -253.5 66.5t-170.5 192t-60 293.5zM278 533q0 -204 81.5 -311t239.5 -107q159 0 241 106.5t82 311.5q0 202 -82 307.5t-242 105.5q-159 0 -239.5 -104 t-80.5 -309z" />
<glyph unicode="p" horiz-adv-x="1217" d="M171 -477v1540h131l22 -145h8q62 87 144.5 126t188.5 39q212 0 327 -145t115 -405q0 -262 -117 -407t-325 -145q-103 0 -189 38t-144 118h-12q12 -93 12 -177v-437h-161zM332 533q0 -225 74.5 -321.5t239.5 -96.5q138 0 216 112t78 307q0 199 -78 305.5t-220 106.5 q-163 0 -235.5 -90.5t-74.5 -287.5v-35z" />
<glyph unicode="q" horiz-adv-x="1217" d="M112 529q0 261 116 407.5t324 146.5q218 0 336 -165h8l24 145h127v-1540h-161v455q0 97 10 165h-12q-112 -162 -336 -162q-206 0 -321 144.5t-115 403.5zM278 527q0 -201 74.5 -306.5t219.5 -105.5q161 0 235 86.5t79 291.5v36q0 223 -76 321t-240 98q-141 0 -216.5 -110 t-75.5 -311z" />
<glyph unicode="r" horiz-adv-x="810" d="M171 0v1063h133l18 -197h8q59 104 142.5 160.5t183.5 56.5q71 0 127 -12l-23 -149q-65 14 -116 14q-129 0 -220.5 -104.5t-91.5 -261.5v-570h-161z" />
<glyph unicode="s" horiz-adv-x="947" d="M103 802q0 130 105.5 205.5t290.5 75.5q171 0 335 -70l-57 -131q-160 66 -290 66q-115 0 -173 -36t-58 -99q0 -43 22 -73t70.5 -57t185.5 -79q190 -69 256.5 -138.5t66.5 -175.5q0 -148 -111 -228.5t-310 -80.5q-212 0 -330 67v149q76 -39 164 -61.5t169 -22.5 q127 0 194.5 40.5t67.5 122.5q0 63 -53.5 107t-210.5 104q-148 55 -210.5 96.5t-93 93.5t-30.5 125z" />
<glyph unicode="t" horiz-adv-x="701" d="M30 938v78l152 67l68 227h93v-247h309v-125h-309v-626q0 -96 46 -147.5t125 -51.5q43 0 82.5 6.5t63.5 13.5v-123q-27 -13 -77.5 -21t-91.5 -8q-309 0 -309 325v632h-152z" />
<glyph unicode="u" horiz-adv-x="1219" d="M159 368v695h163v-690q0 -130 59 -194t185 -64q167 0 244.5 91.5t77.5 297.5v559h161v-1063h-133l-24 143h-8q-50 -79 -137.5 -120.5t-200.5 -41.5q-194 0 -290.5 92t-96.5 295z" />
<glyph unicode="v" horiz-adv-x="995" d="M0 1063h173l229 -630q77 -222 91 -287h8q10 51 67 212.5t255 704.5h172l-403 -1063h-188z" />
<glyph unicode="w" horiz-adv-x="1545" d="M22 1063h169q103 -400 157 -610t61 -282h8q11 55 34.5 143t41.5 139l195 610h174l190 -610q55 -167 74 -280h8q4 35 21 107.5t202 782.5h167l-294 -1063h-191l-195 624q-19 57 -69 260h-8q-39 -170 -68 -262l-200 -622h-187z" />
<glyph unicode="x" horiz-adv-x="1040" d="M38 0l389 544l-370 519h184l280 -407l279 407h182l-370 -519l389 -544h-182l-298 431l-301 -431h-182z" />
<glyph unicode="y" horiz-adv-x="1001" d="M2 1063h173l232 -606q77 -208 95 -300h8q13 50 53 169.5t263 736.5h173l-457 -1210q-68 -180 -158.5 -255t-222.5 -75q-74 0 -145 16v129q53 -11 119 -11q166 0 237 186l59 151z" />
<glyph unicode="z" horiz-adv-x="929" d="M80 0v110l580 828h-545v125h721v-125l-572 -813h587v-125h-771z" />
<glyph unicode="{" horiz-adv-x="752" d="M59 483v137q126 2 182.5 46.5t56.5 137.5v297q0 150 104.5 233.5t281.5 83.5v-135q-223 -6 -223 -193v-286q0 -208 -217 -246v-12q217 -38 217 -246v-288q0 -99 56.5 -144t166.5 -46v-136q-184 2 -285 84.5t-101 231.5v294q0 101 -61 144t-178 43z" />
<glyph unicode="|" horiz-adv-x="1094" d="M479 -481v1990h137v-1990h-137z" />
<glyph unicode="}" horiz-adv-x="752" d="M70 -178q108 1 164 46t56 144v288q0 110 53.5 168.5t162.5 77.5v12q-216 38 -216 246v286q0 187 -220 193v135q178 0 280.5 -84.5t102.5 -232.5v-297q0 -94 57 -138t184 -46v-137q-119 0 -180 -43t-61 -144v-294q0 -148 -99.5 -231t-283.5 -85v136z" />
<glyph unicode="~" d="M101 574v147q97 105 237 105q66 0 120.5 -13.5t140.5 -50.5q64 -27 112 -40t93 -13q53 0 115 31t114 86v-145q-99 -107 -237 -107q-69 0 -130.5 16t-131.5 47q-72 31 -116 43t-90 12q-52 0 -113.5 -32.5t-113.5 -85.5z" />
<glyph unicode="&#xa1;" horiz-adv-x="530" d="M147 954q0 61 31 95.5t86 34.5q49 0 83 -31t34 -99q0 -131 -117 -131q-58 0 -87.5 34t-29.5 97zM163 -362l49 1025h102l50 -1025h-201z" />
<glyph unicode="&#xa2;" d="M184 719q0 493 384 553v167h131v-160q73 -2 142 -18t116 -39l-47 -136q-129 50 -235 50q-167 0 -245.5 -102.5t-78.5 -312.5q0 -206 77 -304.5t239 -98.5q137 0 275 57v-142q-102 -53 -245 -58v-194h-129v199q-196 31 -290 163.5t-94 375.5z" />
<glyph unicode="&#xa3;" d="M61 0v137q199 45 199 282v216h-192v124h192v306q0 173 108.5 272.5t293.5 99.5q184 0 349 -82l-59 -129q-150 75 -289 75q-119 0 -179.5 -60.5t-60.5 -195.5v-286h409v-124h-409v-214q0 -97 -31.5 -163t-103.5 -109h771v-149h-998z" />
<glyph unicode="&#xa4;" d="M119 1059l91 89l131 -129q101 71 227 71q124 0 223 -71l132 129l93 -89l-130 -134q71 -109 71 -224q0 -127 -71 -227l127 -131l-90 -89l-132 129q-99 -69 -223 -69q-130 0 -227 71l-131 -129l-89 89l129 132q-72 104 -72 224q0 119 72 222zM304 701q0 -108 76 -186 t188 -78q113 0 189.5 77.5t76.5 186.5q0 111 -77.5 189.5t-188.5 78.5q-112 0 -188 -79.5t-76 -188.5z" />
<glyph unicode="&#xa5;" d="M30 1418h173l363 -705l368 705h169l-404 -747h255v-123h-308v-165h308v-123h-308v-260h-159v260h-307v123h307v165h-307v123h249z" />
<glyph unicode="&#xa6;" horiz-adv-x="1094" d="M479 273h137v-754h-137v754zM479 757v752h137v-752h-137z" />
<glyph unicode="&#xa7;" horiz-adv-x="1025" d="M119 55v144q76 -36 170 -58t174 -22q130 0 198 37t68 106q0 45 -23 73t-75.5 56t-163.5 70q-138 50 -203 93.5t-97 99t-32 131.5q0 83 41.5 149.5t117.5 102.5q-72 39 -112.5 92.5t-40.5 136.5q0 117 100 184.5t292 67.5q91 0 168 -14t171 -52l-51 -127q-95 38 -160.5 51 t-139.5 13q-113 0 -169 -28.5t-56 -90.5q0 -58 59.5 -99t209.5 -94q180 -66 252.5 -139.5t72.5 -177.5q0 -87 -39.5 -155.5t-111.5 -107.5q149 -79 149 -221q0 -135 -113.5 -209.5t-319.5 -74.5q-212 0 -336 63zM276 804q0 -75 64 -125.5t226 -110.5l48 -18q133 78 133 185 q0 81 -71.5 135t-250.5 110q-66 -19 -107.5 -67.5t-41.5 -108.5z" />
<glyph unicode="&#xa8;" horiz-adv-x="1146" d="M300 1351q0 51 25.5 73t61.5 22q37 0 63.5 -22t26.5 -73q0 -48 -26.5 -72t-63.5 -24q-36 0 -61.5 24t-25.5 72zM669 1351q0 51 26 73t62 22q35 0 62 -22t27 -73q0 -48 -27 -72t-62 -24q-36 0 -62 24t-26 72z" />
<glyph unicode="&#xa9;" horiz-adv-x="1652" d="M97 709q0 194 97 364t266.5 268t365.5 98q194 0 364 -97t268 -267t98 -366q0 -191 -94 -359t-264 -268.5t-372 -100.5q-200 0 -370 100t-264.5 268t-94.5 360zM199 709q0 -168 84.5 -314t230.5 -230t312 -84q169 0 313.5 84.5t229.5 228.5t85 315q0 169 -84.5 313.5 t-228.5 229.5t-315 85q-168 0 -312.5 -84.5t-229.5 -228.5t-85 -315zM467 709q0 203 107 322t292 119q124 0 239 -58l-56 -114q-105 49 -183 49q-121 0 -186.5 -84.5t-65.5 -233.5q0 -163 61.5 -241.5t188.5 -78.5q84 0 205 44v-121q-47 -19 -96 -32.5t-116 -13.5 q-189 0 -289.5 117t-100.5 326z" />
<glyph unicode="&#xaa;" horiz-adv-x="703" d="M68 959q0 99 74.5 150t234.5 57l114 4v38q0 129 -144 129q-97 0 -198 -50l-41 93q110 55 239 55q126 0 192.5 -51t66.5 -169v-438h-90l-23 81q-89 -94 -225 -94q-92 0 -146 48t-54 147zM187 959q0 -97 109 -97q195 0 195 175v47l-95 -3q-109 -4 -159 -32t-50 -90z" />
<glyph unicode="&#xab;" horiz-adv-x="987" d="M80 508v26l331 395l116 -67l-281 -339l281 -341l-116 -69zM463 508v26l333 395l114 -67l-279 -339l279 -341l-114 -69z" />
<glyph unicode="&#xac;" d="M101 633v134h932v-511h-133v377h-799z" />
<glyph unicode="&#xad;" horiz-adv-x="639" d="M81 459v147h477v-147h-477z" />
<glyph unicode="&#xae;" horiz-adv-x="1652" d="M97 709q0 194 97 364t266.5 268t365.5 98q194 0 364 -97t268 -267t98 -366q0 -191 -94 -359t-264 -268.5t-372 -100.5q-200 0 -370 100t-264.5 268t-94.5 360zM199 709q0 -168 84.5 -314t230.5 -230t312 -84q169 0 313.5 84.5t229.5 228.5t85 315q0 169 -84.5 313.5 t-228.5 229.5t-315 85q-168 0 -312.5 -84.5t-229.5 -228.5t-85 -315zM558 276v865h253q161 0 236 -63t75 -192q0 -78 -41 -137.5t-116 -88.5l231 -384h-163l-201 344h-131v-344h-143zM701 739h105q78 0 125 40.5t47 102.5q0 72 -42 104t-132 32h-103v-279z" />
<glyph unicode="&#xaf;" horiz-adv-x="993" d="M-6 1509v124h1005v-124h-1005z" />
<glyph unicode="&#xb0;" horiz-adv-x="850" d="M123 1136q0 126 88 214.5t214 88.5t214.5 -88t88.5 -215q0 -82 -40 -151t-111 -110t-152 -41q-126 0 -214 87.5t-88 214.5zM235 1136q0 -80 56.5 -135t135.5 -55q77 0 133 54.5t56 135.5t-55 136t-134 55q-81 0 -136.5 -55.5t-55.5 -135.5z" />
<glyph unicode="&#xb1;" d="M101 1v134h932v-134h-932zM101 633v134h398v415h134v-415h400v-134h-400v-413h-134v413h-398z" />
<glyph unicode="&#xb2;" horiz-adv-x="689" d="M48 568v101l228 223q87 84 126.5 131t55.5 84t16 89q0 66 -38.5 99.5t-99.5 33.5q-51 0 -98.5 -18.5t-114.5 -66.5l-64 85q127 108 275 108q128 0 199 -63.5t71 -171.5q0 -78 -43 -151t-186 -207l-168 -160h426v-116h-585z" />
<glyph unicode="&#xb3;" horiz-adv-x="689" d="M32 606v120q143 -66 262 -66q205 0 205 157q0 140 -224 140h-114v104h115q100 0 148 38.5t48 104.5q0 59 -38.5 92t-103.5 33q-64 0 -118.5 -21t-108.5 -55l-67 88q61 43 129 69.5t159 26.5q132 0 208 -58t76 -162q0 -77 -39.5 -127t-105.5 -72q170 -46 170 -203 q0 -124 -89 -193.5t-252 -69.5q-147 0 -260 54z" />
<glyph unicode="&#xb4;" horiz-adv-x="1146" d="M381 1204v24q47 60 100.5 145.5t84.5 148.5h196v-20q-42 -63 -126.5 -155.5t-146.5 -142.5h-108z" />
<glyph unicode="&#xb5;" horiz-adv-x="1229" d="M171 -477v1540h161v-693q0 -255 246 -255q166 0 243 92t77 297v559h161v-1063h-132l-25 143h-10q-107 -162 -329 -162q-146 0 -231 89h-10q10 -82 10 -237v-310h-161z" />
<glyph unicode="&#xb6;" horiz-adv-x="1300" d="M110 1011q0 252 105.5 375t330.5 123h540v-1761h-110v1660h-207v-1660h-111v794q-60 -17 -142 -17q-209 0 -307.5 121t-98.5 365z" />
<glyph unicode="&#xb7;" horiz-adv-x="528" d="M147 701q0 64 30.5 97.5t84.5 33.5q56 0 87.5 -33.5t31.5 -97.5q0 -63 -32 -97t-87 -34q-50 0 -82.5 30.5t-32.5 100.5z" />
<glyph unicode="&#xb8;" horiz-adv-x="451" d="M36 -366q44 -7 101 -7q76 0 115.5 19t39.5 72q0 41 -38.5 67t-143.5 42l85 173h107l-54 -112q175 -37 175 -168q0 -94 -74 -145.5t-220 -51.5q-49 0 -93 8v103z" />
<glyph unicode="&#xb9;" horiz-adv-x="689" d="M74 1242l254 176h139v-850h-129v562q0 88 5 176q-21 -22 -47 -43.5t-157 -114.5z" />
<glyph unicode="&#xba;" horiz-adv-x="744" d="M64 1101q0 158 81.5 246t227.5 88q148 0 228 -88.5t80 -245.5q0 -159 -83 -248t-228 -89q-142 0 -224 90.5t-82 246.5zM182 1101q0 -118 44.5 -177.5t145.5 -59.5t146 59.5t45 177.5q0 119 -45 176.5t-146 57.5q-100 0 -145 -57.5t-45 -176.5z" />
<glyph unicode="&#xbb;" horiz-adv-x="987" d="M78 182l278 341l-278 339l113 67l334 -395v-26l-334 -395zM461 182l278 341l-278 339l113 67l334 -395v-26l-334 -395z" />
<glyph unicode="&#xbc;" horiz-adv-x="1549" d="M73 1242l254 176h139v-850h-129v562q0 88 5 176q-21 -22 -47 -43.5t-157 -114.5zM245 0l876 1418h138l-876 -1418h-138zM792 197v98l396 562h135v-546h121v-114h-121v-196h-141v196h-390zM928 311h254v189q0 130 6 203q-5 -12 -16.5 -31t-26 -40.5t-29 -43.5t-25.5 -39z " />
<glyph unicode="&#xbd;" horiz-adv-x="1549" d="M45 1242l254 176h139v-850h-129v562q0 88 5 176q-21 -22 -47 -43.5t-157 -114.5zM179 0l876 1418h138l-876 -1418h-138zM869 1v101l228 223q87 84 126.5 131t55.5 84t16 89q0 66 -38.5 99.5t-99.5 33.5q-51 0 -98.5 -18.5t-114.5 -66.5l-64 85q127 108 275 108 q128 0 199 -63.5t71 -171.5q0 -78 -43 -151t-186 -207l-168 -160h426v-116h-585z" />
<glyph unicode="&#xbe;" horiz-adv-x="1549" d="M25 606v120q143 -66 262 -66q205 0 205 157q0 140 -224 140h-114v104h115q100 0 148 38.5t48 104.5q0 59 -38.5 92t-103.5 33q-64 0 -118.5 -21t-108.5 -55l-67 88q61 43 129 69.5t159 26.5q132 0 208 -58t76 -162q0 -77 -39.5 -127t-105.5 -72q170 -46 170 -203 q0 -124 -89 -193.5t-252 -69.5q-147 0 -260 54zM334 0l876 1418h138l-876 -1418h-138zM870 197v98l396 562h135v-546h121v-114h-121v-196h-141v196h-390zM1006 311h254v189q0 130 6 203q-5 -12 -16.5 -31t-26 -40.5t-29 -43.5t-25.5 -39z" />
<glyph unicode="&#xbf;" horiz-adv-x="852" d="M49 -36q0 68 17 119t48.5 94t74.5 83t95 85q98 86 129.5 142t31.5 146v30h127v-49q0 -118 -36 -190t-131 -153q-117 -103 -146.5 -139.5t-41.5 -74t-12 -91.5q0 -97 64 -152t182 -55q78 0 150.5 18.5t167.5 65.5l57 -131q-191 -93 -383 -93q-184 0 -289 90t-105 255z M385 954q0 62 32 96t85 34q50 0 84 -31t34 -99q0 -131 -118 -131q-57 0 -87 33t-30 98z" />
<glyph unicode="&#xc0;" horiz-adv-x="1257" d="M0 0l561 1424h138l558 -1424h-171l-176 451h-569l-174 -451h-167zM321 1830v20h197q31 -67 86.5 -155t97.5 -139v-24h-106q-63 50 -149.5 143t-125.5 155zM400 599h458l-164 440q-32 83 -66 205q-22 -94 -62 -205z" />
<glyph unicode="&#xc1;" horiz-adv-x="1257" d="M0 0l561 1424h138l558 -1424h-171l-176 451h-569l-174 -451h-167zM400 599h458l-164 440q-32 83 -66 205q-22 -94 -62 -205zM510 1532v24q47 60 100.5 145.5t84.5 148.5h196v-20q-42 -63 -126.5 -155.5t-146.5 -142.5h-108z" />
<glyph unicode="&#xc2;" horiz-adv-x="1257" d="M0 0l561 1424h138l558 -1424h-171l-176 451h-569l-174 -451h-167zM294 1532v22q123 132 172.5 194t71.5 102h161q22 -41 74.5 -105.5t174.5 -190.5v-22h-116q-85 53 -214 180q-132 -130 -212 -180h-112zM400 599h458l-164 440q-32 83 -66 205q-22 -94 -62 -205z" />
<glyph unicode="&#xc3;" horiz-adv-x="1257" d="M0 0l561 1424h138l558 -1424h-171l-176 451h-569l-174 -451h-167zM260 1532q13 117 68.5 183.5t144.5 66.5q44 0 86 -18t79.5 -40t72.5 -39.5t66 -17.5q48 0 71 28.5t38 88.5h96q-13 -117 -67.5 -183.5t-146.5 -66.5q-41 0 -81 18t-78.5 39.5t-73.5 39.5t-68 18 q-49 0 -73.5 -29t-38.5 -88h-95zM400 599h458l-164 440q-32 83 -66 205q-22 -94 -62 -205z" />
<glyph unicode="&#xc4;" horiz-adv-x="1257" d="M0 0l561 1424h138l558 -1424h-171l-176 451h-569l-174 -451h-167zM353 1679q0 51 25.5 73t61.5 22q37 0 63.5 -22t26.5 -73q0 -48 -26.5 -72t-63.5 -24q-36 0 -61.5 24t-25.5 72zM400 599h458l-164 440q-32 83 -66 205q-22 -94 -62 -205zM722 1679q0 51 26 73t62 22 q35 0 62 -22t27 -73q0 -48 -27 -72t-62 -24q-36 0 -62 24t-26 72z" />
<glyph unicode="&#xc5;" horiz-adv-x="1257" d="M0 0l561 1424h138l558 -1424h-171l-176 451h-569l-174 -451h-167zM400 599h458l-164 440q-32 83 -66 205q-22 -94 -62 -205zM411 1537q0 95 58.5 151t155.5 56q98 0 158.5 -57.5t60.5 -147.5q0 -95 -60 -152.5t-159 -57.5q-98 0 -156 56.5t-58 151.5zM512 1537 q0 -54 29 -83.5t84 -29.5q51 0 82.5 29.5t31.5 83.5q0 55 -32 84.5t-82 29.5q-49 0 -81 -29.5t-32 -84.5z" />
<glyph unicode="&#xc6;" horiz-adv-x="1734" d="M-2 0l677 1418h940v-146h-563v-457h525v-146h-525v-522h563v-147h-727v451h-499l-220 -451h-171zM455 599h433v673h-115z" />
<glyph unicode="&#xc7;" horiz-adv-x="1253" d="M121 711q0 219 82 384t237 254.5t364 89.5q223 0 390 -82l-70 -142q-161 76 -322 76q-234 0 -369 -155.5t-135 -426.5q0 -278 130.5 -430t371.5 -152q149 0 339 53v-144q-148 -55 -364 -55q-313 0 -483.5 190t-170.5 540zM535 -366q44 -7 101 -7q76 0 115.5 19t39.5 72 q0 41 -38.5 67t-143.5 42l85 173h107l-54 -112q175 -37 175 -168q0 -94 -74 -145.5t-220 -51.5q-49 0 -93 8v103z" />
<glyph unicode="&#xc8;" horiz-adv-x="1104" d="M195 0v1418h791v-146h-626v-457h588v-146h-588v-522h626v-147h-791zM310 1830v20h197q31 -67 86.5 -155t97.5 -139v-24h-106q-63 50 -149.5 143t-125.5 155z" />
<glyph unicode="&#xc9;" horiz-adv-x="1104" d="M195 0v1418h791v-146h-626v-457h588v-146h-588v-522h626v-147h-791zM442 1532v24q47 60 100.5 145.5t84.5 148.5h196v-20q-42 -63 -126.5 -155.5t-146.5 -142.5h-108z" />
<glyph unicode="&#xca;" horiz-adv-x="1104" d="M195 0v1418h791v-146h-626v-457h588v-146h-588v-522h626v-147h-791zM255 1532v22q123 132 172.5 194t71.5 102h161q22 -41 74.5 -105.5t174.5 -190.5v-22h-116q-85 53 -214 180q-132 -130 -212 -180h-112z" />
<glyph unicode="&#xcb;" horiz-adv-x="1104" d="M195 0v1418h791v-146h-626v-457h588v-146h-588v-522h626v-147h-791zM317 1679q0 51 25.5 73t61.5 22q37 0 63.5 -22t26.5 -73q0 -48 -26.5 -72t-63.5 -24q-36 0 -61.5 24t-25.5 72zM686 1679q0 51 26 73t62 22q35 0 62 -22t27 -73q0 -48 -27 -72t-62 -24q-36 0 -62 24 t-26 72z" />
<glyph unicode="&#xcc;" horiz-adv-x="553" d="M5 1830v20h197q31 -67 86.5 -155t97.5 -139v-24h-106q-63 50 -149.5 143t-125.5 155zM195 0v1418h165v-1418h-165z" />
<glyph unicode="&#xcd;" horiz-adv-x="553" d="M173 1532v24q47 60 100.5 145.5t84.5 148.5h196v-20q-42 -63 -126.5 -155.5t-146.5 -142.5h-108zM195 0v1418h165v-1418h-165z" />
<glyph unicode="&#xce;" horiz-adv-x="553" d="M-55 1532v22q123 132 172.5 194t71.5 102h161q22 -41 74.5 -105.5t174.5 -190.5v-22h-116q-85 53 -214 180q-132 -130 -212 -180h-112zM195 0v1418h165v-1418h-165z" />
<glyph unicode="&#xcf;" horiz-adv-x="553" d="M5 1679q0 51 25.5 73t61.5 22q37 0 63.5 -22t26.5 -73q0 -48 -26.5 -72t-63.5 -24q-36 0 -61.5 24t-25.5 72zM195 0v1418h165v-1418h-165zM374 1679q0 51 26 73t62 22q35 0 62 -22t27 -73q0 -48 -27 -72t-62 -24q-36 0 -62 24t-26 72z" />
<glyph unicode="&#xd0;" horiz-adv-x="1434" d="M46 630v145h149v643h421q327 0 511 -182t184 -513q0 -351 -190.5 -537t-548.5 -186h-377v630h-149zM360 143h184q592 0 592 574q0 559 -552 559h-224v-501h368v-145h-368v-487z" />
<glyph unicode="&#xd1;" horiz-adv-x="1497" d="M195 0v1418h186l773 -1185h8q-2 26 -8.5 168t-5.5 203v814h155v-1418h-188l-775 1190h-8q15 -209 15 -384v-806h-152zM399 1532q13 117 68.5 183.5t144.5 66.5q44 0 86 -18t79.5 -40t72.5 -39.5t66 -17.5q48 0 71 28.5t38 88.5h96q-13 -117 -67.5 -183.5t-146.5 -66.5 q-41 0 -81 18t-78.5 39.5t-73.5 39.5t-68 18q-49 0 -73.5 -29t-38.5 -88h-95z" />
<glyph unicode="&#xd2;" horiz-adv-x="1547" d="M121 713q0 346 171 536.5t485 190.5q306 0 477.5 -194t171.5 -535q0 -340 -172 -535t-479 -195q-313 0 -483.5 191.5t-170.5 540.5zM296 711q0 -288 122.5 -437t356.5 -149q236 0 356 148.5t120 437.5q0 286 -119.5 434t-354.5 148q-236 0 -358.5 -149t-122.5 -433z M498 1830v20h197q31 -67 86.5 -155t97.5 -139v-24h-106q-63 50 -149.5 143t-125.5 155z" />
<glyph unicode="&#xd3;" horiz-adv-x="1547" d="M121 713q0 346 171 536.5t485 190.5q306 0 477.5 -194t171.5 -535q0 -340 -172 -535t-479 -195q-313 0 -483.5 191.5t-170.5 540.5zM296 711q0 -288 122.5 -437t356.5 -149q236 0 356 148.5t120 437.5q0 286 -119.5 434t-354.5 148q-236 0 -358.5 -149t-122.5 -433z M639 1532v24q47 60 100.5 145.5t84.5 148.5h196v-20q-42 -63 -126.5 -155.5t-146.5 -142.5h-108z" />
<glyph unicode="&#xd4;" horiz-adv-x="1547" d="M121 713q0 346 171 536.5t485 190.5q306 0 477.5 -194t171.5 -535q0 -340 -172 -535t-479 -195q-313 0 -483.5 191.5t-170.5 540.5zM296 711q0 -288 122.5 -437t356.5 -149q236 0 356 148.5t120 437.5q0 286 -119.5 434t-354.5 148q-236 0 -358.5 -149t-122.5 -433z M435 1532v22q123 132 172.5 194t71.5 102h161q22 -41 74.5 -105.5t174.5 -190.5v-22h-116q-85 53 -214 180q-132 -130 -212 -180h-112z" />
<glyph unicode="&#xd5;" horiz-adv-x="1547" d="M121 713q0 346 171 536.5t485 190.5q306 0 477.5 -194t171.5 -535q0 -340 -172 -535t-479 -195q-313 0 -483.5 191.5t-170.5 540.5zM296 711q0 -288 122.5 -437t356.5 -149q236 0 356 148.5t120 437.5q0 286 -119.5 434t-354.5 148q-236 0 -358.5 -149t-122.5 -433z M405 1532q13 117 68.5 183.5t144.5 66.5q44 0 86 -18t79.5 -40t72.5 -39.5t66 -17.5q48 0 71 28.5t38 88.5h96q-13 -117 -67.5 -183.5t-146.5 -66.5q-41 0 -81 18t-78.5 39.5t-73.5 39.5t-68 18q-49 0 -73.5 -29t-38.5 -88h-95z" />
<glyph unicode="&#xd6;" horiz-adv-x="1547" d="M121 713q0 346 171 536.5t485 190.5q306 0 477.5 -194t171.5 -535q0 -340 -172 -535t-479 -195q-313 0 -483.5 191.5t-170.5 540.5zM296 711q0 -288 122.5 -437t356.5 -149q236 0 356 148.5t120 437.5q0 286 -119.5 434t-354.5 148q-236 0 -358.5 -149t-122.5 -433z M507 1679q0 51 25.5 73t61.5 22q37 0 63.5 -22t26.5 -73q0 -48 -26.5 -72t-63.5 -24q-36 0 -61.5 24t-25.5 72zM876 1679q0 51 26 73t62 22q35 0 62 -22t27 -73q0 -48 -27 -72t-62 -24q-36 0 -62 24t-26 72z" />
<glyph unicode="&#xd7;" d="M129 1043l97 98l342 -345l344 345l93 -96l-342 -344l340 -341l-93 -96l-344 340l-337 -340l-98 96l339 341z" />
<glyph unicode="&#xd8;" horiz-adv-x="1547" d="M121 713q0 346 171 536.5t485 190.5q203 0 355 -91l94 131l116 -77l-102 -144q186 -196 186 -548q0 -340 -172 -535t-479 -195q-228 0 -371 97l-98 -137l-117 76l105 150q-173 192 -173 546zM296 711q0 -254 98 -404l649 915q-103 71 -266 71q-236 0 -358.5 -149 t-122.5 -433zM493 205q111 -80 282 -80q236 0 356 148.5t120 437.5q0 264 -106 413z" />
<glyph unicode="&#xd9;" horiz-adv-x="1446" d="M180 504v914h165v-925q0 -178 97 -273t286 -95q179 0 276 95.5t97 274.5v923h165v-917q0 -243 -146.5 -381.5t-402.5 -138.5t-396.5 139.5t-140.5 383.5zM449 1830v20h197q31 -67 86.5 -155t97.5 -139v-24h-106q-63 50 -149.5 143t-125.5 155z" />
<glyph unicode="&#xda;" horiz-adv-x="1446" d="M180 504v914h165v-925q0 -178 97 -273t286 -95q179 0 276 95.5t97 274.5v923h165v-917q0 -243 -146.5 -381.5t-402.5 -138.5t-396.5 139.5t-140.5 383.5zM582 1532v24q47 60 100.5 145.5t84.5 148.5h196v-20q-42 -63 -126.5 -155.5t-146.5 -142.5h-108z" />
<glyph unicode="&#xdb;" horiz-adv-x="1446" d="M180 504v914h165v-925q0 -178 97 -273t286 -95q179 0 276 95.5t97 274.5v923h165v-917q0 -243 -146.5 -381.5t-402.5 -138.5t-396.5 139.5t-140.5 383.5zM381 1532v22q123 132 172.5 194t71.5 102h161q22 -41 74.5 -105.5t174.5 -190.5v-22h-116q-85 53 -214 180 q-132 -130 -212 -180h-112z" />
<glyph unicode="&#xdc;" horiz-adv-x="1446" d="M180 504v914h165v-925q0 -178 97 -273t286 -95q179 0 276 95.5t97 274.5v923h165v-917q0 -243 -146.5 -381.5t-402.5 -138.5t-396.5 139.5t-140.5 383.5zM447 1679q0 51 25.5 73t61.5 22q37 0 63.5 -22t26.5 -73q0 -48 -26.5 -72t-63.5 -24q-36 0 -61.5 24t-25.5 72z M816 1679q0 51 26 73t62 22q35 0 62 -22t27 -73q0 -48 -27 -72t-62 -24q-36 0 -62 24t-26 72z" />
<glyph unicode="&#xdd;" horiz-adv-x="1112" d="M0 1418h180l376 -709l378 709h179l-474 -868v-550h-167v542zM429 1532v24q47 60 100.5 145.5t84.5 148.5h196v-20q-42 -63 -126.5 -155.5t-146.5 -142.5h-108z" />
<glyph unicode="&#xde;" horiz-adv-x="1213" d="M195 0v1418h165v-248h208q273 0 408 -100.5t135 -309.5q0 -220 -147 -335.5t-426 -115.5h-178v-309h-165zM360 451h163q219 0 317 69.5t98 228.5q0 144 -92 211t-288 67h-198v-576z" />
<glyph unicode="&#xdf;" horiz-adv-x="1235" d="M171 0v1166q0 173 106.5 263.5t321.5 90.5q200 0 309.5 -76t109.5 -216q0 -131 -139 -242q-86 -68 -113 -100.5t-27 -64.5q0 -31 13 -51.5t47.5 -48t110.5 -77.5q136 -92 185.5 -168t49.5 -174q0 -156 -94.5 -238.5t-267.5 -82.5q-183 0 -286 67v149q61 -38 136.5 -61 t145.5 -23q208 0 208 177q0 73 -40 125t-147 119q-123 80 -169.5 139.5t-46.5 141.5q0 61 33.5 112.5t102.5 102.5q72 55 103.5 99t31.5 95q0 78 -66 119t-190 41q-267 0 -267 -216v-1168h-161z" />
<glyph unicode="&#xe0;" horiz-adv-x="1104" d="M91 294q0 322 515 337l181 6v66q0 125 -54 185t-172 60q-133 0 -301 -82l-50 123q79 43 172.5 67.5t187.5 24.5q190 0 282 -84.5t92 -270.5v-726h-120l-32 151h-7q-80 -100 -159 -135t-197 -35q-158 0 -248 81.5t-90 231.5zM260 292q0 -87 53 -133t148 -46 q150 0 236 82.5t86 231.5v96l-161 -7q-192 -7 -277 -59.5t-85 -164.5zM270 1502v20h197q31 -67 86.5 -155t97.5 -139v-24h-106q-63 50 -149.5 143t-125.5 155z" />
<glyph unicode="&#xe1;" horiz-adv-x="1104" d="M91 294q0 322 515 337l181 6v66q0 125 -54 185t-172 60q-133 0 -301 -82l-50 123q79 43 172.5 67.5t187.5 24.5q190 0 282 -84.5t92 -270.5v-726h-120l-32 151h-7q-80 -100 -159 -135t-197 -35q-158 0 -248 81.5t-90 231.5zM260 292q0 -87 53 -133t148 -46 q150 0 236 82.5t86 231.5v96l-161 -7q-192 -7 -277 -59.5t-85 -164.5zM423 1204v24q47 60 100.5 145.5t84.5 148.5h196v-20q-42 -63 -126.5 -155.5t-146.5 -142.5h-108z" />
<glyph unicode="&#xe2;" horiz-adv-x="1104" d="M91 294q0 322 515 337l181 6v66q0 125 -54 185t-172 60q-133 0 -301 -82l-50 123q79 43 172.5 67.5t187.5 24.5q190 0 282 -84.5t92 -270.5v-726h-120l-32 151h-7q-80 -100 -159 -135t-197 -35q-158 0 -248 81.5t-90 231.5zM221 1204v22q123 132 172.5 194t71.5 102h161 q22 -41 74.5 -105.5t174.5 -190.5v-22h-116q-85 53 -214 180q-132 -130 -212 -180h-112zM260 292q0 -87 53 -133t148 -46q150 0 236 82.5t86 231.5v96l-161 -7q-192 -7 -277 -59.5t-85 -164.5z" />
<glyph unicode="&#xe3;" horiz-adv-x="1104" d="M91 294q0 322 515 337l181 6v66q0 125 -54 185t-172 60q-133 0 -301 -82l-50 123q79 43 172.5 67.5t187.5 24.5q190 0 282 -84.5t92 -270.5v-726h-120l-32 151h-7q-80 -100 -159 -135t-197 -35q-158 0 -248 81.5t-90 231.5zM191 1204q13 117 68.5 183.5t144.5 66.5 q44 0 86 -18t79.5 -40t72.5 -39.5t66 -17.5q48 0 71 28.5t38 88.5h96q-13 -117 -67.5 -183.5t-146.5 -66.5q-41 0 -81 18t-78.5 39.5t-73.5 39.5t-68 18q-49 0 -73.5 -29t-38.5 -88h-95zM260 292q0 -87 53 -133t148 -46q150 0 236 82.5t86 231.5v96l-161 -7 q-192 -7 -277 -59.5t-85 -164.5z" />
<glyph unicode="&#xe4;" horiz-adv-x="1104" d="M91 294q0 322 515 337l181 6v66q0 125 -54 185t-172 60q-133 0 -301 -82l-50 123q79 43 172.5 67.5t187.5 24.5q190 0 282 -84.5t92 -270.5v-726h-120l-32 151h-7q-80 -100 -159 -135t-197 -35q-158 0 -248 81.5t-90 231.5zM260 292q0 -87 53 -133t148 -46 q150 0 236 82.5t86 231.5v96l-161 -7q-192 -7 -277 -59.5t-85 -164.5zM271 1351q0 51 25.5 73t61.5 22q37 0 63.5 -22t26.5 -73q0 -48 -26.5 -72t-63.5 -24q-36 0 -61.5 24t-25.5 72zM640 1351q0 51 26 73t62 22q35 0 62 -22t27 -73q0 -48 -27 -72t-62 -24q-36 0 -62 24 t-26 72z" />
<glyph unicode="&#xe5;" horiz-adv-x="1104" d="M91 294q0 322 515 337l181 6v66q0 125 -54 185t-172 60q-133 0 -301 -82l-50 123q79 43 172.5 67.5t187.5 24.5q190 0 282 -84.5t92 -270.5v-726h-120l-32 151h-7q-80 -100 -159 -135t-197 -35q-158 0 -248 81.5t-90 231.5zM260 292q0 -87 53 -133t148 -46 q150 0 236 82.5t86 231.5v96l-161 -7q-192 -7 -277 -59.5t-85 -164.5zM347 1412q0 95 58.5 151t155.5 56q98 0 158.5 -57.5t60.5 -147.5q0 -95 -60 -152.5t-159 -57.5q-98 0 -156 56.5t-58 151.5zM448 1412q0 -54 29 -83.5t84 -29.5q51 0 82.5 29.5t31.5 83.5q0 55 -32 84.5 t-82 29.5q-49 0 -81 -29.5t-32 -84.5z" />
<glyph unicode="&#xe6;" horiz-adv-x="1704" d="M91 294q0 156 120.5 243t366.5 94l179 6v66q0 125 -56.5 185t-171.5 60q-140 0 -298 -82l-51 123q72 40 168.5 66t191.5 26q126 0 206 -42.5t120 -134.5q52 85 134.5 132t189.5 47q186 0 298.5 -129.5t112.5 -345.5v-104h-679q7 -383 312 -383q88 0 164 17t158 55v-144 q-84 -36 -156 -52t-170 -16q-280 0 -402 226q-78 -124 -173.5 -175t-225.5 -51q-158 0 -248 82.5t-90 230.5zM260 292q0 -92 52 -135.5t137 -43.5q141 0 222.5 82t81.5 232v96l-154 -7q-180 -8 -259.5 -60.5t-79.5 -163.5zM925 633h504q0 152 -62 233.5t-179 81.5 t-184.5 -80.5t-78.5 -234.5z" />
<glyph unicode="&#xe7;" horiz-adv-x="945" d="M112 525q0 267 128.5 412.5t365.5 145.5q77 0 153.5 -16.5t120.5 -39.5l-50 -137q-53 22 -116 36t-112 14q-324 0 -324 -413q0 -196 79 -301t235 -105q133 0 272 57v-142q-106 -55 -268 -55q-231 0 -357.5 142t-126.5 402zM352 -366q44 -7 101 -7q76 0 115.5 19t39.5 72 q0 41 -38.5 67t-143.5 42l85 173h107l-54 -112q175 -37 175 -168q0 -94 -74 -145.5t-220 -51.5q-49 0 -93 8v103z" />
<glyph unicode="&#xe8;" horiz-adv-x="1114" d="M112 523q0 257 126.5 408.5t339.5 151.5q200 0 316.5 -131.5t116.5 -347.5v-102h-733q5 -187 95 -284t253 -97q171 0 339 72v-144q-85 -36 -161 -52t-184 -16q-236 0 -372 143.5t-136 398.5zM282 633h556q0 153 -68 234t-194 81q-128 0 -204 -83.5t-90 -231.5zM308 1502 v20h197q31 -67 86.5 -155t97.5 -139v-24h-106q-63 50 -149.5 143t-125.5 155z" />
<glyph unicode="&#xe9;" horiz-adv-x="1114" d="M112 523q0 257 126.5 408.5t339.5 151.5q200 0 316.5 -131.5t116.5 -347.5v-102h-733q5 -187 95 -284t253 -97q171 0 339 72v-144q-85 -36 -161 -52t-184 -16q-236 0 -372 143.5t-136 398.5zM282 633h556q0 153 -68 234t-194 81q-128 0 -204 -83.5t-90 -231.5zM457 1204 v24q47 60 100.5 145.5t84.5 148.5h196v-20q-42 -63 -126.5 -155.5t-146.5 -142.5h-108z" />
<glyph unicode="&#xea;" horiz-adv-x="1114" d="M112 523q0 257 126.5 408.5t339.5 151.5q200 0 316.5 -131.5t116.5 -347.5v-102h-733q5 -187 95 -284t253 -97q171 0 339 72v-144q-85 -36 -161 -52t-184 -16q-236 0 -372 143.5t-136 398.5zM251 1204v22q123 132 172.5 194t71.5 102h161q22 -41 74.5 -105.5 t174.5 -190.5v-22h-116q-85 53 -214 180q-132 -130 -212 -180h-112zM282 633h556q0 153 -68 234t-194 81q-128 0 -204 -83.5t-90 -231.5z" />
<glyph unicode="&#xeb;" horiz-adv-x="1114" d="M112 523q0 257 126.5 408.5t339.5 151.5q200 0 316.5 -131.5t116.5 -347.5v-102h-733q5 -187 95 -284t253 -97q171 0 339 72v-144q-85 -36 -161 -52t-184 -16q-236 0 -372 143.5t-136 398.5zM282 633h556q0 153 -68 234t-194 81q-128 0 -204 -83.5t-90 -231.5zM310 1351 q0 51 25.5 73t61.5 22q37 0 63.5 -22t26.5 -73q0 -48 -26.5 -72t-63.5 -24q-36 0 -61.5 24t-25.5 72zM679 1351q0 51 26 73t62 22q35 0 62 -22t27 -73q0 -48 -27 -72t-62 -24q-36 0 -62 24t-26 72z" />
<glyph unicode="&#xec;" horiz-adv-x="502" d="M-37 1502v20h197q31 -67 86.5 -155t97.5 -139v-24h-106q-63 50 -149.5 143t-125.5 155zM171 0v1063h161v-1063h-161z" />
<glyph unicode="&#xed;" horiz-adv-x="502" d="M164 1204v24q47 60 100.5 145.5t84.5 148.5h196v-20q-42 -63 -126.5 -155.5t-146.5 -142.5h-108zM171 0v1063h161v-1063h-161z" />
<glyph unicode="&#xee;" horiz-adv-x="502" d="M-75 1204v22q123 132 172.5 194t71.5 102h161q22 -41 74.5 -105.5t174.5 -190.5v-22h-116q-85 53 -214 180q-132 -130 -212 -180h-112zM171 0v1063h161v-1063h-161z" />
<glyph unicode="&#xef;" horiz-adv-x="502" d="M-19 1351q0 51 25.5 73t61.5 22q37 0 63.5 -22t26.5 -73q0 -48 -26.5 -72t-63.5 -24q-36 0 -61.5 24t-25.5 72zM171 0v1063h161v-1063h-161zM350 1351q0 51 26 73t62 22q35 0 62 -22t27 -73q0 -48 -27 -72t-62 -24q-36 0 -62 24t-26 72z" />
<glyph unicode="&#xf0;" horiz-adv-x="1184" d="M110 461q0 223 127.5 350t340.5 127q219 0 316 -117l8 3q-55 208 -254 393l-263 -150l-71 105l226 129q-89 60 -180 107l67 114q151 -71 250 -144l231 134l74 -104l-201 -115q147 -139 227 -332t80 -415q0 -272 -126.5 -418.5t-365.5 -146.5q-216 0 -351 130.5 t-135 349.5zM273 455q0 -162 84.5 -251t241.5 -89q170 0 248 97.5t78 284.5q0 142 -87 224.5t-239 82.5q-326 0 -326 -349z" />
<glyph unicode="&#xf1;" horiz-adv-x="1219" d="M171 0v1063h131l26 -145h8q49 78 138.5 121.5t198.5 43.5q192 0 289 -93t97 -296v-694h-161v688q0 130 -59 194t-185 64q-167 0 -244.5 -90.5t-77.5 -297.5v-558h-161zM270 1204q13 117 68.5 183.5t144.5 66.5q44 0 86 -18t79.5 -40t72.5 -39.5t66 -17.5q48 0 71 28.5 t38 88.5h96q-13 -117 -67.5 -183.5t-146.5 -66.5q-41 0 -81 18t-78.5 39.5t-73.5 39.5t-68 18q-49 0 -73.5 -29t-38.5 -88h-95z" />
<glyph unicode="&#xf2;" horiz-adv-x="1199" d="M112 533q0 259 130 404.5t360 145.5q223 0 354.5 -148.5t131.5 -401.5q0 -260 -131 -406t-361 -146q-143 0 -253.5 66.5t-170.5 192t-60 293.5zM278 533q0 -204 81.5 -311t239.5 -107q159 0 241 106.5t82 311.5q0 202 -82 307.5t-242 105.5q-159 0 -239.5 -104 t-80.5 -309zM338 1502v20h197q31 -67 86.5 -155t97.5 -139v-24h-106q-63 50 -149.5 143t-125.5 155z" />
<glyph unicode="&#xf3;" horiz-adv-x="1199" d="M112 533q0 259 130 404.5t360 145.5q223 0 354.5 -148.5t131.5 -401.5q0 -260 -131 -406t-361 -146q-143 0 -253.5 66.5t-170.5 192t-60 293.5zM278 533q0 -204 81.5 -311t239.5 -107q159 0 241 106.5t82 311.5q0 202 -82 307.5t-242 105.5q-159 0 -239.5 -104 t-80.5 -309zM464 1204v24q47 60 100.5 145.5t84.5 148.5h196v-20q-42 -63 -126.5 -155.5t-146.5 -142.5h-108z" />
<glyph unicode="&#xf4;" horiz-adv-x="1199" d="M112 533q0 259 130 404.5t360 145.5q223 0 354.5 -148.5t131.5 -401.5q0 -260 -131 -406t-361 -146q-143 0 -253.5 66.5t-170.5 192t-60 293.5zM274 1204v22q123 132 172.5 194t71.5 102h161q22 -41 74.5 -105.5t174.5 -190.5v-22h-116q-85 53 -214 180 q-132 -130 -212 -180h-112zM278 533q0 -204 81.5 -311t239.5 -107q159 0 241 106.5t82 311.5q0 202 -82 307.5t-242 105.5q-159 0 -239.5 -104t-80.5 -309z" />
<glyph unicode="&#xf5;" horiz-adv-x="1199" d="M112 533q0 259 130 404.5t360 145.5q223 0 354.5 -148.5t131.5 -401.5q0 -260 -131 -406t-361 -146q-143 0 -253.5 66.5t-170.5 192t-60 293.5zM241 1204q13 117 68.5 183.5t144.5 66.5q44 0 86 -18t79.5 -40t72.5 -39.5t66 -17.5q48 0 71 28.5t38 88.5h96 q-13 -117 -67.5 -183.5t-146.5 -66.5q-41 0 -81 18t-78.5 39.5t-73.5 39.5t-68 18q-49 0 -73.5 -29t-38.5 -88h-95zM278 533q0 -204 81.5 -311t239.5 -107q159 0 241 106.5t82 311.5q0 202 -82 307.5t-242 105.5q-159 0 -239.5 -104t-80.5 -309z" />
<glyph unicode="&#xf6;" horiz-adv-x="1199" d="M112 533q0 259 130 404.5t360 145.5q223 0 354.5 -148.5t131.5 -401.5q0 -260 -131 -406t-361 -146q-143 0 -253.5 66.5t-170.5 192t-60 293.5zM278 533q0 -204 81.5 -311t239.5 -107q159 0 241 106.5t82 311.5q0 202 -82 307.5t-242 105.5q-159 0 -239.5 -104 t-80.5 -309zM326 1351q0 51 25.5 73t61.5 22q37 0 63.5 -22t26.5 -73q0 -48 -26.5 -72t-63.5 -24q-36 0 -61.5 24t-25.5 72zM695 1351q0 51 26 73t62 22q35 0 62 -22t27 -73q0 -48 -27 -72t-62 -24q-36 0 -62 24t-26 72z" />
<glyph unicode="&#xf7;" d="M101 633v134h932v-134h-932zM457 362q0 58 28.5 87.5t80.5 29.5q51 0 79 -30.5t28 -86.5q0 -55 -28.5 -86.5t-78.5 -31.5t-79.5 31t-29.5 87zM457 1039q0 58 28.5 87.5t80.5 29.5q51 0 79 -30.5t28 -86.5q0 -55 -28.5 -86t-78.5 -31t-79.5 30.5t-29.5 86.5z" />
<glyph unicode="&#xf8;" horiz-adv-x="1199" d="M112 533q0 259 130 404.5t360 145.5q150 0 262 -74l82 115l113 -73l-94 -129q123 -148 123 -389q0 -260 -131 -406t-361 -146q-150 0 -258 67l-82 -114l-110 76l91 127q-125 147 -125 396zM278 533q0 -166 52 -265l451 626q-73 52 -183 52q-159 0 -239.5 -104t-80.5 -309 zM421 165q69 -50 178 -50q159 0 241 106.5t82 311.5q0 159 -50 256z" />
<glyph unicode="&#xf9;" horiz-adv-x="1219" d="M159 368v695h163v-690q0 -130 59 -194t185 -64q167 0 244.5 91.5t77.5 297.5v559h161v-1063h-133l-24 143h-8q-50 -79 -137.5 -120.5t-200.5 -41.5q-194 0 -290.5 92t-96.5 295zM323 1502v20h197q31 -67 86.5 -155t97.5 -139v-24h-106q-63 50 -149.5 143t-125.5 155z" />
<glyph unicode="&#xfa;" horiz-adv-x="1219" d="M159 368v695h163v-690q0 -130 59 -194t185 -64q167 0 244.5 91.5t77.5 297.5v559h161v-1063h-133l-24 143h-8q-50 -79 -137.5 -120.5t-200.5 -41.5q-194 0 -290.5 92t-96.5 295zM491 1204v24q47 60 100.5 145.5t84.5 148.5h196v-20q-42 -63 -126.5 -155.5t-146.5 -142.5 h-108z" />
<glyph unicode="&#xfb;" horiz-adv-x="1219" d="M159 368v695h163v-690q0 -130 59 -194t185 -64q167 0 244.5 91.5t77.5 297.5v559h161v-1063h-133l-24 143h-8q-50 -79 -137.5 -120.5t-200.5 -41.5q-194 0 -290.5 92t-96.5 295zM277 1204v22q123 132 172.5 194t71.5 102h161q22 -41 74.5 -105.5t174.5 -190.5v-22h-116 q-85 53 -214 180q-132 -130 -212 -180h-112z" />
<glyph unicode="&#xfc;" horiz-adv-x="1219" d="M159 368v695h163v-690q0 -130 59 -194t185 -64q167 0 244.5 91.5t77.5 297.5v559h161v-1063h-133l-24 143h-8q-50 -79 -137.5 -120.5t-200.5 -41.5q-194 0 -290.5 92t-96.5 295zM332 1351q0 51 25.5 73t61.5 22q37 0 63.5 -22t26.5 -73q0 -48 -26.5 -72t-63.5 -24 q-36 0 -61.5 24t-25.5 72zM701 1351q0 51 26 73t62 22q35 0 62 -22t27 -73q0 -48 -27 -72t-62 -24q-36 0 -62 24t-26 72z" />
<glyph unicode="&#xfd;" horiz-adv-x="1001" d="M2 1063h173l232 -606q77 -208 95 -300h8q13 50 53 169.5t263 736.5h173l-457 -1210q-68 -180 -158.5 -255t-222.5 -75q-74 0 -145 16v129q53 -11 119 -11q166 0 237 186l59 151zM398 1204v24q47 60 100.5 145.5t84.5 148.5h196v-20q-42 -63 -126.5 -155.5t-146.5 -142.5 h-108z" />
<glyph unicode="&#xfe;" horiz-adv-x="1217" d="M171 -477v1986h161v-452q0 -50 -6 -137h8q64 86 146.5 124.5t184.5 38.5q209 0 325.5 -145.5t116.5 -404.5q0 -260 -117 -406t-325 -146q-215 0 -333 156h-12l4 -33q8 -75 8 -136v-445h-161zM332 533q0 -225 74.5 -321.5t239.5 -96.5q294 0 294 419q0 209 -72 310.5 t-224 101.5q-163 0 -236.5 -89.5t-75.5 -284.5v-39z" />
<glyph unicode="&#xff;" horiz-adv-x="1001" d="M2 1063h173l232 -606q77 -208 95 -300h8q13 50 53 169.5t263 736.5h173l-457 -1210q-68 -180 -158.5 -255t-222.5 -75q-74 0 -145 16v129q53 -11 119 -11q166 0 237 186l59 151zM227 1351q0 51 25.5 73t61.5 22q37 0 63.5 -22t26.5 -73q0 -48 -26.5 -72t-63.5 -24 q-36 0 -61.5 24t-25.5 72zM596 1351q0 51 26 73t62 22q35 0 62 -22t27 -73q0 -48 -27 -72t-62 -24q-36 0 -62 24t-26 72z" />
<glyph unicode="&#x152;" horiz-adv-x="1833" d="M121 713q0 349 169 538t479 189q99 0 186 -22h759v-146h-571v-457h534v-146h-534v-522h571v-147h-745q-99 -19 -188 -19q-317 0 -488.5 190.5t-171.5 541.5zM296 711q0 -288 124.5 -437t364.5 -149q108 0 193 32v1107q-85 29 -191 29q-242 0 -366.5 -148t-124.5 -434z " />
<glyph unicode="&#x153;" horiz-adv-x="1871" d="M110 533q0 257 127 402.5t355 145.5q127 0 226.5 -58t159.5 -168q56 108 149 167t215 59q195 0 310.5 -128.5t115.5 -348.5v-102h-707q8 -381 328 -381q91 0 169 17t163 55v-144q-86 -37 -159.5 -52.5t-174.5 -15.5q-284 0 -405 228q-60 -113 -161.5 -170.5t-234.5 -57.5 q-216 0 -346 147.5t-130 404.5zM278 533q0 -205 74 -311.5t236 -106.5q158 0 232 103.5t74 306.5q0 214 -75 317.5t-235 103.5q-161 0 -233.5 -105t-72.5 -308zM1065 633h528q0 154 -64 233.5t-188 79.5t-194 -79.5t-82 -233.5z" />
<glyph unicode="&#x178;" horiz-adv-x="1112" d="M0 1418h180l376 -709l378 709h179l-474 -868v-550h-167v542zM285 1679q0 51 25.5 73t61.5 22q37 0 63.5 -22t26.5 -73q0 -48 -26.5 -72t-63.5 -24q-36 0 -61.5 24t-25.5 72zM654 1679q0 51 26 73t62 22q35 0 62 -22t27 -73q0 -48 -27 -72t-62 -24q-36 0 -62 24t-26 72z " />
<glyph unicode="&#x2c6;" horiz-adv-x="1175" d="M260 1204v22q123 132 172.5 194t71.5 102h161q22 -41 74.5 -105.5t174.5 -190.5v-22h-116q-85 53 -214 180q-132 -130 -212 -180h-112z" />
<glyph unicode="&#x2dc;" horiz-adv-x="1175" d="M256 1204q13 117 68.5 183.5t144.5 66.5q44 0 86 -18t79.5 -40t72.5 -39.5t66 -17.5q48 0 71 28.5t38 88.5h96q-13 -117 -67.5 -183.5t-146.5 -66.5q-41 0 -81 18t-78.5 39.5t-73.5 39.5t-68 18q-49 0 -73.5 -29t-38.5 -88h-95z" />
<glyph unicode="&#x2000;" horiz-adv-x="925" />
<glyph unicode="&#x2001;" horiz-adv-x="1850" />
<glyph unicode="&#x2002;" horiz-adv-x="925" />
<glyph unicode="&#x2003;" horiz-adv-x="1850" />
<glyph unicode="&#x2004;" horiz-adv-x="616" />
<glyph unicode="&#x2005;" horiz-adv-x="462" />
<glyph unicode="&#x2006;" horiz-adv-x="308" />
<glyph unicode="&#x2007;" horiz-adv-x="308" />
<glyph unicode="&#x2008;" horiz-adv-x="231" />
<glyph unicode="&#x2009;" horiz-adv-x="370" />
<glyph unicode="&#x200a;" horiz-adv-x="102" />
<glyph unicode="&#x2010;" horiz-adv-x="639" d="M81 459v147h477v-147h-477z" />
<glyph unicode="&#x2011;" horiz-adv-x="639" d="M81 459v147h477v-147h-477z" />
<glyph unicode="&#x2012;" horiz-adv-x="639" d="M81 459v147h477v-147h-477z" />
<glyph unicode="&#x2013;" horiz-adv-x="993" d="M80 459v147h834v-147h-834z" />
<glyph unicode="&#x2014;" horiz-adv-x="1986" d="M80 459v147h1827v-147h-1827z" />
<glyph unicode="&#x2018;" horiz-adv-x="337" d="M24 954q22 87 69.5 217t101.5 247h119q-64 -246 -100 -486h-178z" />
<glyph unicode="&#x2019;" horiz-adv-x="337" d="M24 932q68 277 99 486h177l14 -21q-25 -97 -72.5 -225.5t-98.5 -239.5h-119z" />
<glyph unicode="&#x201a;" horiz-adv-x="486" d="M61 -256q26 101 57.5 249.5t44.5 237.5h177l14 -22q-25 -97 -72.5 -226t-99.5 -239h-121z" />
<glyph unicode="&#x201c;" horiz-adv-x="695" d="M24 954q22 87 69.5 217t101.5 247h119q-64 -246 -100 -486h-178zM379 954q55 208 173 464h119q-29 -111 -57.5 -251.5t-41.5 -234.5h-178z" />
<glyph unicode="&#x201d;" horiz-adv-x="695" d="M24 932q68 277 99 486h177l14 -21q-25 -97 -72.5 -225.5t-98.5 -239.5h-119zM379 932q25 97 57.5 246.5t44.5 239.5h177l13 -21q-23 -88 -69.5 -217t-100.5 -248h-122z" />
<glyph unicode="&#x201e;" horiz-adv-x="804" d="M24 -255q68 277 99 486h177l14 -21q-25 -97 -72.5 -225.5t-98.5 -239.5h-119zM379 -255q25 97 57.5 246.5t44.5 239.5h177l13 -21q-23 -88 -69.5 -217t-100.5 -248h-122z" />
<glyph unicode="&#x2022;" horiz-adv-x="746" d="M159 726q0 117 55 178t159 61q102 0 158.5 -60t56.5 -179q0 -116 -56 -178.5t-159 -62.5t-158.5 63.5t-55.5 177.5z" />
<glyph unicode="&#x2026;" horiz-adv-x="1557" d="M147 103q0 65 30 98.5t85 33.5q56 0 87.5 -33.5t31.5 -98.5q0 -63 -32 -97t-87 -34q-50 0 -82.5 30.5t-32.5 100.5zM661 103q0 65 30 98.5t85 33.5q56 0 87.5 -33.5t31.5 -98.5q0 -63 -32 -97t-87 -34q-50 0 -82.5 30.5t-32.5 100.5zM1176 103q0 65 30 98.5t85 33.5 q56 0 87.5 -33.5t31.5 -98.5q0 -63 -32 -97t-87 -34q-50 0 -82.5 30.5t-32.5 100.5z" />
<glyph unicode="&#x202f;" horiz-adv-x="370" />
<glyph unicode="&#x2039;" horiz-adv-x="604" d="M80 508v26l331 395l116 -67l-281 -339l281 -341l-116 -69z" />
<glyph unicode="&#x203a;" horiz-adv-x="604" d="M78 182l278 341l-278 339l113 67l334 -395v-26l-334 -395z" />
<glyph unicode="&#x205f;" horiz-adv-x="462" />
<glyph unicode="&#x20ac;" horiz-adv-x="1171" d="M61 491v125h148l-2 41v42l2 78h-148v125h159q38 253 179.5 395t371.5 142q195 0 355 -95l-69 -134q-161 83 -286 83q-309 0 -386 -391h495v-125h-508l-2 -55v-62l2 -44h449v-125h-434q36 -175 134.5 -270.5t263.5 -95.5q151 0 299 64v-145q-141 -63 -307 -63 q-230 0 -370 130.5t-185 379.5h-161z" />
<glyph unicode="&#x2122;" horiz-adv-x="1541" d="M36 1315v103h527v-103h-205v-596h-119v596h-203zM628 719v699h181l190 -542l197 542h175v-699h-124v407l6 133h-8l-204 -540h-101l-195 542h-8l6 -125v-417h-115z" />
<glyph unicode="&#x25fc;" horiz-adv-x="1062" d="M0 0v1062h1062v-1062h-1062z" />
</font>
</defs>
</svg>
